2015 - ROCK

Discos, conciertos, noticias, flames, lloros y mucho HYPE.

Re: 2015 - ROCK

Notapor LlaneroSolitario » 29 Dic 2015 02:46

Avatar de Usuario
LlaneroSolitario
Dronecracia Real
Dronecracia Real
 
Mensajes: 10414
Registrado: 04 Jul 2008 14:33

Re: 2015 - ROCK

Notapor RE©))) » 29 Dic 2015 14:00

"Purple" está bastante bien, pero SUENA COMO EL PUTO CULO.

Spoiler: mostrar
foobar2000 1.3.6 / Dynamic Range Meter 1.1.0
log date: 2015-12-29 12:58:17

--------------------------------------------------------------------------------
Analyzed: Baroness / Purple
--------------------------------------------------------------------------------

DR Peak RMS Duration Track
--------------------------------------------------------------------------------
DR4 0.00 dB -5.07 dB 4:17 01-Morningstar
DR4 0.00 dB -5.60 dB 4:17 02-Shock Me
DR4 0.00 dB -5.94 dB 4:53 03-Try To Disappear
DR4 -0.17 dB -6.46 dB 5:11 04-Kerosene
DR6 0.00 dB -9.49 dB 2:35 05-Fugue
DR4 0.00 dB -6.66 dB 6:49 06-Chlorine & Wine
DR4 0.00 dB -5.62 dB 4:25 07-The Iron Bell
DR4 0.00 dB -4.86 dB 4:14 08-Desperation Burns
DR5 0.00 dB -7.19 dB 5:42 09-If I Have To Wake Up (Would You Stop The Rain)
DR8 -4.99 dB -25.94 dB 0:17 10-Crossroads Of Infinity
--------------------------------------------------------------------------------

Number of tracks: 10
Official DR value: DR5

Samplerate: 44100 Hz
Channels: 2
Bits per sample: 16
Bitrate: 474 kbps
Codec: FLAC
================================================================================
Imagen Imagen
Avatar de Usuario
RE©)))
 
Mensajes: 724
Registrado: 11 Jul 2013 14:18

Re: 2015 - ROCK

Notapor LlaneroSolitario » 29 Dic 2015 14:45

Pues es un poco más de DR3, aunque la mayoría de los temas tienen DR4 que para el caso viene a ser lo mismo. Eso sí, luego todos los "audiófilos" diciendo que en vinilo suena mejor, se junta el hambre con las ganas de comer, igual que siempre.
Avatar de Usuario
LlaneroSolitario
Dronecracia Real
Dronecracia Real
 
Mensajes: 10414
Registrado: 04 Jul 2008 14:33

Re: 2015 - ROCK

Notapor RE©))) » 29 Dic 2015 21:34

Imagen Imagen
Avatar de Usuario
RE©)))
 
Mensajes: 724
Registrado: 11 Jul 2013 14:18

Re: 2015 - ROCK

Notapor S-----G » 29 Dic 2015 22:33

RE©))) escribió:


Tras una primera pasada me ha parecido demasiado lentote ¿no? Me ha dejado un poco chof que vengan con esto tras el Legend.
Avatar de Usuario
S-----G
Staff, Gañan 2012
 
Mensajes: 10487
Registrado: 11 Nov 2008 14:24

Anterior

Volver a Música

¿Quién está conectado?

Usuarios navegando por este Foro: No hay usuarios registrados visitando el Foro y 16 invitados

cron
Top